#TITLE:The Penis Song;
#SUBTITLE:;
#ARTIST:Momus;
#TITLETRANSLIT:;
#SUBTITLETRANSLIT:;
#ARTISTTRANSLIT:;
#CREDIT:;
#BANNER:banner.png;
#BACKGROUND:bg.png;
#LYRICSPATH:;
#CDTITLE:cdtitle.png;
#MUSIC:momus - The Penis Song.mp3;
#OFFSET:0.120;
#SAMPLESTART:100.000;
#SAMPLELENGTH:12.000;
#SELECTABLE:YES;
#BPMS:0.000=174.920;
#STOPS:;
#BGCHANGES:;
// cache tags:
#FIRSTBEAT:8.000;
#LASTBEAT:335.000;
#SONGFILENAME:Songs/Music V.I.P ^_^/Penis Song/penissong.sm;
#HASMUSIC:1;
#HASBANNER:1;
#MUSICLENGTH:117.893;
// end cache tags

//---------------dance-single - ----------------
#NOTES:
     dance-single:
     :
     Easy:
     4:
     0.325,0.426,0.212,0.110,0.000,230.000,25.000,13.000,0.000,0.000:
0000
0000
0000
0000
,
0000
0000
0000
0000
,
0001
0000
0010
0000
,
0001
0000
0010
0000
,
0001
0000
0010
0000
,
0001
0010
0001
0010
,
0001
0000
1000
0100
,
1000
0100
1000
0100
,
1000
0100
1000
0000
,
0001
0010
0001
0010
,
0001
0010
0001
0100
,
1000
0100
1000
0100
,
1000
0100
1000
0100
,
0001
0010
0000
0000
,
0000
0000
0000
0000
,
0000
1000
0010
1000
,
0010
1000
0010
1000
,
0000
0100
0001
0100
,
0001
0100
0001
0100
,
0000
1000
0010
0001
,
0010
1000
0001
0010
,
0000
1001
0000
0110
,
0000
1001
0110
1001
,
0000
1100
0010
0101
,
0010
1000
0100
0001
,
0010
1000
0100
0001
,
0010
0000
0000
0000
0000
0000
0100
0100
,
0000
0000
0000
0000
,
0000
0000
0000
2000
,
0002
0000
0000
0000
,
0000
0000
3003
0000
,
0000
0000
0000
0000
,
0000
1000
0001
0100
,
0001
1000
0001
0100
,
0000
0001
1000
0010
,
0001
1000
0001
0010
,
0000
1000
0100
0100
,
0001
0010
1000
0100
,
0000
0101
0000
1100
,
0000
0101
0100
1100
,
1000
0002
0000
0000
,
0000
0003
0000
1000
,
0001
0010
0001
0010
,
0001
0010
0000
0010
,
1000
0100
1000
0100
,
1000
0100
0000
0001
,
0010
0100
0010
0100
,
0010
1000
0000
0101
,
0000
1010
0000
0101
,
1001
0000
1100
0000
0000
0000
1000
0001
,
0001
0000
0001
0100
0100
0000
1000
0000
,
0010
0100
0001
0100
,
0100
0100
0100
0100
,
0100
0000
0000
0010
0010
0000
0000
0000
,
0000
0000
0000
0000
,
0000
2002
0000
0000
,
0000
0000
0000
3003
,
0000
0000
0000
0000
,
0000
0000
2000
0010
,
0010
0010
3002
1000
,
1000
1000
0203
0010
,
0010
0010
0320
0100
,
0100
0100
1030
0001
,
1000
0001
1000
0001
,
1000
0010
0001
1000
,
0010
0001
0100
1000
,
0100
2020
0000
0000
,
0000
3030
0000
0000
,
0100
0010
0010
1000
,
0010
0010
0001
0100
,
0100
1000
0100
0100
,
1000
0010
0100
0001
,
0010
0001
0010
0000
,
1000
0100
0010
0100
,
0001
0100
0010
1000
,
0100
0001
0010
0000
,
0100
0000
1001
0000
,
0110
0000
1001
0110
,
1001
0110
0000
0000
,
0000
2002
0000
0000
,
0000
3003
0000
0100
,
0000
0001
0000
0100
,
0000
1000
0000
0100
,
0000
0001
0000
0100
;
